Jump to content
Welcome Guest!

Join us now to get access to all our features. Once registered and logged in, you will be able to create topics, post replies to existing threads, give reputation to your fellow members, get your own private messenger, and so, so much more. It's also quick and totally free, so what are you waiting for?

rafaelbrx

Member
  • Content count

    29
  • Joined

  • Last visited

Community Reputation

552 Great

About rafaelbrx

  • Rank
    Member

Profile Information

  • Country
    United States
  • Gender
    Male
  1. wbfs | SXEE52 | 2007 | Action, Shooter | 3.9 GB Download
  2. (Wii) Guitar Hero 5 [wbfs][ntsc]

    wbfs | SXEE52 | 2009 | music | 4 GB Download [Hidden Content]
  3. Framed by My Fiancé

    GENRE...............: Thriller FILE SIZE...........: 725.68 MB LANGUAGE............: English RUNTIME.............: 83 mins Daniel, a brilliant lawyer who is about to become one of the state's youngest judges, is driving with his fiancé Jenny when they hit another car. Download [Hidden Content]
  4. wbfs | RPBE01 | 2007 | Strategy, Turn Based Tactics | 1 GB Downoad [Hidden Content]
  5. Video ID : 1 Format : AVC Format/Info : Advanced Video Codec Format profile : Format settings : CABAC / 5 Ref Frames Format settings, CABAC : Yes Format settings, ReFrames : 5 frames Codec ID : V_MPEG4/ISO/AVC Duration : 2 h 56 min Bit rate : 1 088 kb/s Width : 1 280 pixels Height : 544 pixels Display aspect ratio : 2.35:1 Frame rate mode : Constant Frame rate : 25.000 FPS Color space : YUV Chroma subsampling : 4:2:0 Bit depth : 8 bits Scan type : Progressive Bits/(Pixel*Frame) : 0.063 Stream size : 1.33 GiB (89%) Title : LatestHDMovies - TeamSHAHID Writing library : x264 core 148 r2643 5c65704 Encoding settings : cabac=1 / ref=5 / deblock=1:0:0 / analyse=0x3:0x113 / me=hex / subme=7 / psy=1 / psy_rd=1.00:0.00 / mixed_ref=1 / me_range=16 / chroma_me=1 / trellis=1 / 8x8dct=1 / cqm=0 / deadzone=21,11 / fast_pskip=1 / chroma_qp_offset=-2 / threads=8 / lookahead_threads=8 / sliced_threads=1 / slices=8 / nr=0 / decimate=1 / interlaced=0 / bluray_compat=0 / constrained_intra=0 / bframes=0 / weightp=2 / keyint=250 / keyint_min=25 / scenecut=40 / intra_refresh=0 / rc=abr / mbtree=0 / bitrate=1088 / ratetol=1.0 / qcomp=0.60 / qpmin=0 / qpmax=69 / qpstep=4 / ip_ratio=1.40 / aq=1:1.00 Language : English Default : Yes Forced : No Audio ID : 2 Format : AAC Format/Info : Advanced Audio Codec Format profile : LC Codec ID : A_AAC-2 Duration : 2 h 56 min Bit rate : 128 kb/s Channel(s) : 2 channels Channel positions : Front: L R Sampling rate : 48.0 kHz Frame rate : 46.875 FPS (1024 SPF) Compression mode : Lossy Delay relative to video : -43 ms Stream size : 161 MiB (11%) Title : LatestHDMovies - TeamSHAHID Language : Hindi Default : Yes Forced : No 1.5 GB | MKV Download [Hidden Content]
  6. MEmu is an Android emulator that specializes in video games. With MEmu you can enjoy many exclusive titles that you can find for the Android platform, directly on your computer. You don't need to adjust any complicated settings and configure the controls, just install it and start playing. With MEmu, you can install Android games quite easily, simply click the APK button on the right side of the interface, select the APK of the game you want to install, and wait. It really is that easy. As with most emulators, the controls are already set up, so you can play any game with either the mouse or the keyboard. With MEmu, though, if you don't like how the controls are configured, you can always modify them, or even use an Xbox 360 controller if you are more comfortable with console gaming. There are numerous Android emulators available, but MEmu is an exceptional choice. It gives you access to a vast array of games for Android, right on your PC. The levels of compatibility, customization, and file organization is better than some of the more well known alternatives on the market. Key features: Full Android experience with an elegant desktop Flexible customization (CPU#, memory size, resoluton, device model, nav bar location, root mode, etc.) Keyboard / joystick mapping to touch screen for much better game experience Pass through sensor data (e.g. accelerometer) to Android, so you can play car-racing like games Fast APK installation by dragging and dropping File sharing between Windows and Android One-click android system creation / clone / deleting, and you can run multiple Android instances 211 MB Download [Hidden Content]
  7. wbfs | REYE4Q | 2009 | Action, Music | 4 GB Download [Hidden Content]
  8. [PC] PREONE

    Are you ready to adventure the new world? far future. citizens of the city that only machines are left wondered what\'s gonna be out there. the leader of machines decided to make \'team explorers\' for solving citizens\'s curiosity and \'team explorers\' had an adventured unknown world. 4 of explorers had found a civilization while wandering around they had explored there during 10 years but couldn\'t found any evidence of life. For more info go to : [Hidden Content] - Extract - Burn or mount the .iso - Run setup.exe and install - Play General Notes: - Block the game\'s exe in your firewall to prevent the game from trying to go online .. - If you install games to your systemdrive, it may be necessary to run this game with admin privileges instead CODEX is currently looking for nothing but competition! Greetings to STEAMPUNKS & CPY LNK^CPS 02/2015 MINIMUM: OS: Windows 7/8/8.1/10 (32bit/64bit) Processor: Intel Core i3 3.0GHZ Processors Memory: 4 GB RAM Graphics: Nvidia Geforce GTX 460 DirectX: Version 9.0 Storage: 5 GB available space RECOMMENDED: OS: Windows 7/8/8.1/10 (64bit) Processor: Intel Core i5 7400 Memory: 8 GB RAM Graphics: Nvidia Geforce 1050ti DirectX: Version 11 Storage: 5 GB available space ISO | 1.9 GB Download [Hidden Content]
  9. wbfs | SMNE01 | 2009 | NTSC-U | Action | 352 MB Download [Hidden Content]
  10. wbfs | SX4E01 | 2012 | NTSC-U | Action, Role Playing | 6.6 GB Download part1: [Hidden Content] part2: [Hidden Content] part3: [Hidden Content] part4: [Hidden Content]
  11. wbfs | RMGE01 | 2007 | NTSC-U | Action, Platform| 3.3 GB Download [Hidden Content]
  12. wbfs | RDSE70 | 2007 | NTSC-U | Action, Fighting - | 3.2 GB Download [Hidden Content]
  13. wbfs | RFEE01 | 2007 | Srategy | 2.9GB Download [Hidden Content]
  14. iso | 3GB DEscriptION: Welcome home! It's time to land on Mars and to establish the first active colony in the history of mankind on the Red Planet. All you need is supplies, oxygen, decades of hard training, survival skills in sandstorms and the determination with which you will have to understand the purpose of these strange black cubes that have emerged as if from nowhere. It will be a great place! If you clean up a little here. FEATURES: - Based on the release from CODEX - Cut OST / Do not recoded - Game archives are not opened - Game version - Spirit Update. - DLC Surviving Surviving Mars - Stellaris Dome Set Digital Deluxe Edition ModTools; - Change the language in the game settings menu - Installation time 1 minute on HDD (Depends on computer) Updated on 04/25/2018 | Game Version - Opportunity Update Repack from xatab Installation notes: 1.Burn the iso 2.Install 3.Survive on mars Dowload [Hidden Content]
  15. (Wii) Ashes Cricket 2009 [pal, iso]

    iso, pal, 2009, 4.3GB Dowload [Hidden Content]
×